Quieres ayudar

Este blog esta dedicado a rescatar esas películas viejitas que ya no podemos ver en tv, si quieres colaborar con audios o subiendo películas puedes contactarnos, las películas aquí subidas en su mayoría son montajes hechos con audios que en algún momento fueron grabados en vhs o capturas de tv.


Buscamos audios de películas viejitas que talvez tengas en VHS.


Buscamos personas que tengan captura de TV y quieran ayudar grabando audios.


miércoles, 22 de junio de 2011

Ferris Bueller's Day Off [720p][Latino-Ingles]

Imagen


Format : Matroska
File size : 4.48 GiB
Duration : 1h 43mn
Overall bit rate : 6 224 Kbps
Movie name : Ferris Bueller's Day Off (1986)
Encoded date : UTC 2011-05-26 23:19:22
Writing application : mkvmerge v4.4.0 ('Die Wiederkehr') built on Oct 31 2010 21:52:48
Writing library : libebml v1.0.0 + libmatroska v1.0.0
Cover : Yes / Yes / Yes

Video
ID : 1
Format : AVC
Format/Info : Advanced Video Codec
Format profile : High@L4.1
Format settings, CABAC : Yes
Format settings, ReFrames : 10 frames
Muxing mode : Header stripping
Codec ID : V_MPEG4/ISO/AVC
Duration : 1h 43mn
Bit rate : 5 423 Kbps
Width : 1 280 pixels
Height : 544 pixels
Display aspect ratio : 2.35:1
Frame rate : 23.976 fps
Color space : YUV
Chroma subsampling : 4:2:0
Bit depth : 8 bits
Scan type : Progressive
Bits/(Pixel*Frame) : 0.325
Stream size : 3.81 GiB (85%)
Writing library : x264 core 67 r1163M 3f56e27
Encoding settings : cabac=1 / ref=10 / deblock=1:-3:-3 / analyse=0x3:0x133 / me=umh / subme=9 / psy_rd=0.9:0.7 / mixed_ref=1 / me_range=16 / chroma_me=1 / trellis=2 / 8x8dct=1 / cqm=0 / deadzone=21,11 / chroma_qp_offset=-4 / threads=6 / nr=0 / decimate=1 / mbaff=0 / bframes=5 / b_pyramid=1 / b_adapt=2 / b_bias=0 / direct=1 / wpredb=1 / keyint=250 / keyint_min=25 / scenecut=40 / rc=2pass / bitrate=5423 / ratetol=1.0 / qcomp=0.60 / qpmin=10 / qpmax=34 / qpstep=4 / cplxblur=20.0 / qblur=0.5 / vbv_maxrate=30000 / vbv_bufsize=30000 / ip_ratio=1.40 / pb_ratio=1.30 / aq=1:0.70
Language : English

Audio #1
ID : 2
Format : MPEG Audio
Format version : Version 1
Format profile : Layer 3
Mode : Joint stereo
Muxing mode : Header stripping
Codec ID : A_MPEG/L3
Codec ID/Hint : MP3
Duration : 1h 43mn
Bit rate mode : Constant
Bit rate : 160 Kbps
Channel(s) : 2 channels
Sampling rate : 48.0 KHz
Compression mode : Lossy
Stream size : 118 MiB (3%)
Language : Spanish

Audio #2
ID : 3
Format : AC-3
Format/Info : Audio Coding 3
Mode extension : CM (complete main)
Muxing mode : Header stripping
Codec ID : A_AC3
Duration : 1h 43mn
Bit rate mode : Constant
Bit rate : 640 Kbps
Channel(s) : 6 channels
Channel positions : Front: L C R, Side: L R, LFE
Sampling rate : 48.0 KHz
Bit depth : 16 bits
Compression mode : Lossy
Stream size : 472 MiB (10%)
Language : English

Text #1
ID : 4
Format : ASS
Codec ID : S_TEXT/ASS
Codec ID/Info : Advanced Sub Station Alpha
Compression mode : Lossless
Language : English

Text #2
ID : 5
Format : ASS
Codec ID : S_TEXT/ASS
Codec ID/Info : Advanced Sub Station Alpha
Compression mode : Lossless
Language : Danish

Text #3
ID : 6
Format : ASS
Codec ID : S_TEXT/ASS
Codec ID/Info : Advanced Sub Station Alpha
Compression mode : Lossless
Language : Finnish

Text #4
ID : 7
Format : ASS
Codec ID : S_TEXT/ASS
Codec ID/Info : Advanced Sub Station Alpha
Compression mode : Lossless
Language : French

Text #5
ID : 8
Format : ASS
Codec ID : S_TEXT/ASS
Codec ID/Info : Advanced Sub Station Alpha
Compression mode : Lossless
Language : German

Text #6
ID : 9
Format : ASS
Codec ID : S_TEXT/ASS
Codec ID/Info : Advanced Sub Station Alpha
Compression mode : Lossless
Language : Romanian

Text #7
ID : 10
Format : ASS
Codec ID : S_TEXT/ASS
Codec ID/Info : Advanced Sub Station Alpha
Compression mode : Lossless
Language : Spanish



 


Captura y Sincronizacion por MDX
pass mdx

http://www.fileserve.com/file/zyQJQpb
http://www.fileserve.com/file/ZTh3kCe
http://www.fileserve.com/file/kafzwAu
http://www.fileserve.com/file/wBx4p8S
http://www.fileserve.com/file/nEaE6PC
http://www.fileserve.com/file/8vrASAP
http://www.fileserve.com/file/YwKYxdW
http://www.fileserve.com/file/436qJMf
http://www.fileserve.com/file/4SnhmbQ
http://www.fileserve.com/file/HFbZcd8
http://www.fileserve.com/file/p4dwty2
http://www.fileserve.com/file/AbzkMBU
http://www.fileserve.com/file/q68C3qh

No hay comentarios:

Publicar un comentario en la entrada